Денис борисов тушку на просушку 2011 pdf. Борисов Тушку На Просушку Скачать

Денис борисов тушку на просушку 2011 pdf Rating: 8,5/10 1957 reviews

Борисов Тушку На Просушку Скачать

денис борисов тушку на просушку 2011 pdf

Основы телостроительства, программы тренировок, питание, спортивное питание, сушка, диеты, тренировочный дневник, азотистый баланс, анаболики, тренировки целевых мышц — все эти и многие другие аспекты рассмотрены автором в данной книге. Исчерпывающие описания таких симптомов, как боль, головокружение, сердцебиение, тошнота, нарушения двигательных функций, повышение температуры, кровотечения и другие, их клиническая характеристика и подробна. Анаболики группы, курсы, безопасность, выход из курса, эффективность и т. Ведь большие мышцы - это не большая сила. Раздают: 0 Качают : 0 Скачали : 0.

Next

Борисов Денис. Программа МЕЧТА 104% [PDF]

денис борисов тушку на просушку 2011 pdf

Значит и программы тренировок для набора массы должны быть разные. Повесть 04:20:40 Один знаменитый ученый сказал: «Научные открытия сами по себе не бывают ни добрыми, ни злыми. Представленные в этой книге детальные иллюстрации, демонстрирующие функции мышц и сухожилий, дают наглядное представление о том, что происходит с вашим телом во время выполнения упражнения. Еще лучше влиять сразу на две этих составляющие. В пособии рассмотрены варианты действий для мужчин и для женщин для получения разумного и адекватного результата. Химику важнее общий объем работы и пампинг, а не стресс. Для этого случая мне пришлось разработать дополнительный вариант, в котором дета нуждается в большем количестве калорий 2000-2500 ккал чем обычно.

Next

Книги / Книги / Медицина и здоровье / Скачать бесплатно

денис борисов тушку на просушку 2011 pdf

Остросюжетный авантюрно-уголовный роман-боевик о поисках зарытого в Якутии клада и борьбе преступных группировок за обладание им. Дневник и планирование каждой тренировки вперед на несколько месяцев вперед - привычное дело для тренирующегося по этой схеме человека. Причин появления указанных болей — великое множество. Причем у меня это проходило планово. У большинства людей это не получается, к сожалению. Размер потока : 7,63 Мбайт 18% Общее Полное имя : 06. Аудио книга тушка на просушку слушать онлайн В книге автор предлагает пошаговый алгоритм для похудения или, как это называют профессионалы, для сушки! Лекарственные растения в народной медицине» — это уникальная книга для каждого, кто интересуется народными методами лечения различных заболеваний с помощью растений.

Next

Борисов Тушку На Просушку Скачать

денис борисов тушку на просушку 2011 pdf

Может не стоит вестись на дорогие тренажеры, таблетки, диетологов и пояса для похудения. Материал самодостаточен не требует прочтения Я2. Это два ведущих ученых, которые создали великолепные работы связанные с развитием скоростносиловых качеств в олимпийских видах спорта. Самое обидное, что никто толком не мог мне все это объяснить. Формат: Автор: Год выпуска: 1993-2006 Жанр: Язык: Количество страниц: 300 Описание: В сборнике представленны некоторые книги и статьи о медицине.

Next

ТУШКУ НА ПРОСУШКУ: жиросжигающая схема(Денис Борисов)

денис борисов тушку на просушку 2011 pdf

В этой книге основательница Вашингтонской школы протокола эксперт по этикету рассказывает о самых важных правилах поведения: на собеседовании, при знакомстве, привет. Помимо этого, я постарался объединить все то интересное по теме, что я уже когда то писал в статьях, на форумах и в группе. Толковый тренер в приличном тренажерном зале напишет вам схему сушки в 10-ть раз менее подробную, а возьмет за это минимум в 3-4 раза больше денег! Болезни становятся следствием нашего образа жизни — гиподинамии, неправильного питания, — негативного влияния стресса и окружающих нас экологических условий. Раздача состоит из файлов видео-тренингов и книжных изданий. Документ содержит весь текст с форума. Однако основной акцент сделан именно на тренировки, потому что натуральные тренинг сильно отличаются от тренировок химических атлетов, с одной стороны, и потому что тренировки - это главное в телостроительстве т. Первая группа веществ не вырабатывается в нашем организме или вырабатывается в недостаточном количестве особенно зимой.


Next

Книга Тушку на просушку (2011) бесплатно

денис борисов тушку на просушку 2011 pdf

Это поражает, когда 40-ка летние женщины начинают задумываться о выступлении в фитнес бикини, или когда мужчина, хвастается что за 11 месяцев убрал 70 кг жира! Ничего не бывает просто так, без напряга! В связи с этим необходимо обратить особое внимание на своевременную. Вы познакомитесь с техникой проведения классического, сегментарно-рефлекторного, лечебного, спортивного, косметического, китайского массажа, а также с методикой выполнения массажа ребенка на первом году жизни. Размер потока : 9,53 Мбайт 16% Общее Полное имя : 09. Прочитав курс вы более подробно можете узнать про упражнения для пресса и про эффективную тренировку мышц живота в домашних условиях. Вы узнаете, что нужно сделать до прибытия врачей при инфаркте, инсульте, приступе астмы, аллергической ре.

Next

Книга Тушку на просушку (2011) бесплатно

денис борисов тушку на просушку 2011 pdf

Что касается женщин, то сама схема теория подойдет и им. На странице оплаты предоставлено огромное количество альтернативных способов электронной оплаты по 4-рем вкладкам каждая из которых содержит огромный перечень способов оплаты. Изучив его, вы сможете помочь родным и близким при травме или внезапной болезни, а также пострадавшим в автомобильной катастрофе, во время пожара, на воде и в других критических ситуациях. Муравьева Год выпуска: 1999 Жанр: Издательство: Крон-Пресс Серия: Язык: Количество страниц: 544 Описание: Перед вами — полное руководство по экстренной медицинской помощи. Все это и составляет содержание.

Next

Борисов Тушку На Просушку Скачать

денис борисов тушку на просушку 2011 pdf

В книги входили путешествия, приключения, фантастика, факты, догадки, случаи и многое другое. Год выпуска: 2006 Жанр: Народная и нетрадиционная медицина Издательство: Язык: Количество страниц: 960 Описание: «Большая энциклопедия. Материал включает в себя схему питания. Действие происходит в первой половине минувшего столетия. И почему в этой же школе месяцем ранее при неясных обстоятельствах погибла девочка — ученица того самого 11-го класса, которым руководила Истомина? Денис Борисов - Тушку на просушку 2013.

Next

Скачать книгу Денис Борисов

денис борисов тушку на просушку 2011 pdf

Просьбы по удалению или изменению содержимого будут осуществляться только на усмотрение Сервиса. Это сборник тезисов по основным вопросам телостроительства в виде удобного набора статей. Часть из этих способов рабочие. Что это — обычный суицид, поступок неуравновешенного человека или Анастасия Истомина стала жертвой преступления? Больше года назад я начал сознательно экспериментировать с натуральными тренировками. Научившись определять и выделять мышцы, испол.

Next

Тушка На Просушку Скачать

денис борисов тушку на просушку 2011 pdf

Мы гарантируем, что личные данные строго засекречены. Размер потока : 23,7 Мбайт 16% Общее Полное имя : 12. Поэтому вся фитнес индустрия заинтересована чтоб вы не владели информацией и постоянно топтались по кругу тратя деньги. Что я узнаю из этого материала? Иначе говоря, при этой схеме тренинга вес на штанге не становится больше, но увеличивается общее количество поднятых за тренировку килограмм. Вот основные моменты: Мой вес колеблется : 90-96 кг.

Next